Skip to main content

Greyboy Allstars Live at Union Transfer on 2013-06-29




01. Intro
02.
03. Breaking Blood
04.
05.
06. Inland Emperor
07.
08. Diminishing Blackness
09. Old Crow
10.
11.
12.
13.
14.
15.
16. The Way You Make Me Feel
Encore:
17.


Collection GreyboyAllstars
Band/Artist Greyboy Allstars
Venue Union Transfer
Location Philadelphia, PA

Source Matrix; Schoeps cmc6/mk4v + Sennheiser ME 64 > Tascam DR-680(@ 24/44.1)
Lineage SD> .wav @24/44.1> Wavelab 7.2.1(UAD-2)> .wav @24/44.1> Apogee UV22HR> .wav @16/44.1> xAct> flac16.
Taped by Chris Cafiero
Transferred by Mixed and mastered by Alex Ford

Notes

Tauk opened the show.

Source: Matrix; Schoeps cmc6/mk4v + Sennheiser ME 64 > Tascam DR-680(@ 24/44.1)

Lineage: SD> .wav @24/44.1> Wavelab 7.2.1(UAD-2)> .wav @24/44.1> Apogee UV22HR>
.wav @16/44.1> xAct> flac16.

Taped and transferred by Chris Cafiero
Mixed and mastered by Alex Ford

Shnlen:

length expanded size cdr WAVE problems fmt ratio filename
0:31.73 5640140 B --- -- ----- wav 1.0000 gba2013-06-29.mtx.t01.wav
3:47.15 40078124 B --- -- ----- wav 1.0000 gba2013-06-29.mtx.t02.wav
7:47.72 82548188 B --- -- ----- wav 1.0000 gba2013-06-29.mtx.t03.wav
3:52.64 41075372 B --- -- ----- wav 1.0000 gba2013-06-29.mtx.t04.wav
8:41.25 91963244 B --- -- ----- wav 1.0000 gba2013-06-29.mtx.t05.wav
5:22.09 56822012 B --- -- ----- wav 1.0000 gba2013-06-29.mtx.t06.wav
2:35.58 27478460 B --- -- ----- wav 1.0000 gba2013-06-29.mtx.t07.wav
8:51.66 93823676 B --- -- ----- wav 1.0000 gba2013-06-29.mtx.t08.wav
3:56.15 41665724 B --- -- ----- wav 1.0000 gba2013-06-29.mtx.t09.wav
9:35.53 101554700 B --- -- ----- wav 1.0000 gba2013-06-29.mtx.t10.wav
5:20.30 56518604 B --- -- ----- wav 1.0000 gba2013-06-29.mtx.t11.wav
6:27.64 68417372 B --- -- ----- wav 1.0000 gba2013-06-29.mtx.t12.wav
3:41.11 39010316 B --- -- ----- wav 1.0000 gba2013-06-29.mtx.t13.wav
7:08.49 75614492 B --- -- ----- wav 1.0000 gba2013-06-29.mtx.t14.wav
4:12.69 44615132 B --- -- ----- wav 1.0000 gba2013-06-29.mtx.t15.wav
8:45.00 92610044 B --- -- ----- wav 1.0000 gba2013-06-29.mtx.t16.wav
8:42.62 92226668 B --- -- ----- wav 1.0000 gba2013-06-29.mtx.t17.wav
99:21.60 1051662268 B 1.0000 (17 files)

Reviews

There are no reviews yet. Be the first one to write a review.
DOWNLOAD OPTIONS
Uploaded by
Albix
on 10/3/2013
Views
104
Favorites
1
PEOPLE ALSO FOUND
Greyboy Allstars
by Greyboy Allstars
104
1
0
Source: Matrix; Schoeps cmc6/mk4v + Sennheiser ME 64 > Tascam DR-680(@ 24/44.1)
Speakeasy
by Speakeasy
261
1
0
Source: flac16; SBD > XLR > Tascam DR-100 (@24/44.1)
Phil Lesh and Friends
by Phil Lesh and Friends
899
1
0
Source: (FOB) 2 x Sennheiser 835e > Sony D5 > 2 x Maxell MX90 + 1 x Maxell XLII-S 100
Paul Barrere and Fred Tackett Acoustic Duo
by Paul Barrere and Fred Tackett Acoustic Duo
227
0
0
Source: Sennheiser ME64(ORTF) > Sound Devices 722 (16/44.1)
Little Feat
by Little Feat
501
1
0
Source: (FOB) Schoeps CCM4V'S(din)>Lunatec V2>Benchmark AD2K>Sound Devices 722 (24/48)
Little Feat
by Little Feat
222
1
0
Source: Neumann KM184s(POS)>V2>R44(Oade CMOD)@24/96>SDHC
Little Feat
by Little Feat
171
0
0
Source: Sennheiser ME64(ORTF) > Sound Devices 722 (16/44.1)
Little Feat
by Little Feat
380
0
0
Source: Nakamichi 300 Mics W/CP2 Omnis > Edirol UA-5 > Edirol R-09 HR
Little Feat
by Little Feat
159
1
0
Source: Gefell MV690/M70 (Cards)>Busman Mod HD-P2, 24/48
Little Feat
by Little Feat
379
3
0
Source: nak300cp1(15ft spread) + akg 460b-ck61(dead center/90 deg.)> R-44 Concert Mod@2448